Skip to main content

I See Hawks in LA Live at Redwood Bar and Grill on 2012-04-01




Mary Austin Sky, Hunger Mountin Breakdown, Dear Flash, Your Love Is Going To Kill Me Some Day, Younger But Wiser, New Kind of Lonely, I See Hawks in L.A., Still Want You, Bohemian Highway, The Drinkers' Hall of Fame, Big Old Hypodermic Needle, River Run, Laissez Les Bon Temps Roulet, If You Lead I Will Follow, Good and Foolish Times


Collection ISeeHawksinLA
Band/Artist I See Hawks in LA
Venue Redwood Bar and Grill
Location Los Angeles, CA

Source MMDr (master matrix digital recording)
Lineage SDHC > USB 2.0 > WAV > FLAC
Taped by macdaddy
Transferred by macdaddy

Notes

1) AKG c422 > s42 > Grace Design Lunatec V2 > Sonic AD2K+ > Roland R-44 (S/PDIF digital input)
2) SBD > XLR (x2) > Shure A15AS Attenuators (-25 db) > Roland R-44 (Oade Concert Mod)

Location: ~Center, ~30' back, ~7' matthellini clamp/manfrotto extension pole, nanoclamp
Mic Config: X/Y (supercardiod)
Record Format: 24-bit, 96 kHz
Transfer: SDHC card > USB 2.0 card reader > MacBook Air
Edit: quadratic (linear) fades, normalize peak to -0.2 db (Wave Editor 1.5.6)
Tracking (Wave Editor 1.5.6)
Resample: Ultra-steep, Linear Phase (Izotope ReSampler/Wave Editor 1.5.6)
Dither: Ultra Shape, High Amount (MBIT+/Wave Editor 1.5.6)
Final Format: 16-bit, 44.1 kHz
Encode, Verify: xACT
Tagging, etc.: Live Show Tagger, ReplayGain (foobar2000)


Many thanks to soundman Rick.


length expanded size cdr WAVE problems fmt ratio filename
0:22.28 3946700 B --- -- ----- wav 1.0000 ishila2012-04-01 01.wav
3:46.64 40016972 B --- -- ----- wav 1.0000 ishila2012-04-01 02.wav
3:19.12 35131868 B --- -- ----- wav 1.0000 ishila2012-04-01 03.wav
5:57.56 63106556 B --- -- ----- wav 1.0000 ishila2012-04-01 04a.wav
5:05.07 53818508 B --- -- ----- wav 1.0000 ishila2012-04-01 04b.wav
4:44.39 50189372 B --- -- ----- wav 1.0000 ishila2012-04-01 05.wav
6:21.62 67354268 B --- -- ----- wav 1.0000 ishila2012-04-01 06.wav
6:54.09 73050812 B --- -- ----- wav 1.0000 ishila2012-04-01 07.wav
4:57.45 52496684 B --- -- ----- wav 1.0000 ishila2012-04-01 08.wav
4:42.05 49756604 B --- -- ----- wav 1.0000 ishila2012-04-01 09.wav
3:34.18 37791980 B --- -- ----- wav 1.0000 ishila2012-04-01 10.wav
4:28.67 47432828 B --- -- ----- wav 1.0000 ishila2012-04-01 11.wav
3:55.65 41606924 B --- -- ----- wav 1.0000 ishila2012-04-01 12.wav
4:58.48 52680140 B --- -- ----- wav 1.0000 ishila2012-04-01 13.wav
4:56.14 52247372 B --- -- ----- wav 1.0000 ishila2012-04-01 14.wav
3:53.61 41244716 B --- -- ----- wav 1.0000 ishila2012-04-01 15.wav
71:59.00 761872304 B 1.0000 (16 files)


### FREE ###
The musicians allowed this recording for FREE.
PLEASE...
- Only share this recording with others for FREE.
- Do NOT sell or trade this recording for profit of any kind.

### SUPPORT MUSICIANS ###
Help ensure live recordings remain easily accessible and FREE by supporting the musicians:
- attend their live shows
- purchase their dry goods
- buy their studio releases

For more information on the musicians, their tours, and
studio recordings visit http://www.iseehawks.com/


++ recorded, transferred and uploaded to the lma by macdaddy (May 19, 2012)

Reviews

Reviewer: cfinnstl - - November 4, 2013
Subject: This recording smokes!
This mix is excellent and that AKG mic is awesome! :drool:
Uploaded by
macdaddy
on 5/19/2012
Views
594
Favorites
1
Reviews
1
PEOPLE ALSO FOUND
I See Hawks in LA
by I See Hawks in LA
530
0
0
Source: MMDr (master matrix digital recording)
I See Hawks in LA
by I See Hawks in LA
594
1
1
( 1 reviews )
Source: MMDr (master matrix digital recording)
Camper Van Beethoven
by Camper Van Beethoven
72
0
0
Source: MMDr (master matrix digital recording)
Camper Van Beethoven
by Camper Van Beethoven
4,137
0
3
( 3 reviews )
Source: MAD (master audience dat)
Alejandro Escovedo
by Alejandro Escovedo
506
0
0
Source: MMDr (master matrix digital recording)
Dumpstaphunk
by Dumpstaphunk
363
0
1
( 1 reviews )
Source: MADr (master audience digital recording)
Delta Nove
by Delta Nove
159
0
0
Source: MADr (master audience digital recording)
Stanton Moore
by Stanton Moore
335
0
0
Source: MADr (master audience digital recording)
Eric McFadden
by Eric McFadden
947
0
0
Source: AKG c422 (blumlein) > oade acm hd-p2 @ 24/48*
Stanton Moore
by Stanton Moore
853
0
1
( 1 reviews )
Source: MADr (master audience digital recording)